<?xml version="1.0" standalone="no"?>
<!DOCTYPE svg PUBLIC "-//W3C//DTD SVG 1.1//EN" "http://www.w3.org/Graphics/SVG/1.1/DTD/svg11.dtd">
<svg xmlns="http://www.w3.org/2000/svg">
<metadata>Copyright (C) 2022 by original authors @ fontello.com</metadata>
<defs>
<font id="domaintools-icons" horiz-adv-x="1000" >
<font-face font-family="domaintools-icons" font-weight="400" font-stretch="normal" units-per-em="1000" ascent="850" descent="-150" />
<missing-glyph horiz-adv-x="1000" />
<glyph glyph-name="path-128948" unicode="&#xe800;" d="M1412 827a70 70 0 0 0 0-106l-847-847a70 70 0 0 0-106 0l-436 437a74 74 0 0 0 0 106 78 78 0 0 0 109 0l381-382 792 792a74 74 0 0 0 107 0z" horiz-adv-x="1436" />

<glyph glyph-name="path-128947" unicode="&#xe801;" d="M1155 322l-431-459a48 48 0 0 0-33-13 44 44 0 0 0-29 11 41 41 0 0 0-3 59l367 388h-983a42 42 0 0 0-43 40 46 46 0 0 0 43 44h983l-367 388a41 41 0 0 0 3 59 44 44 0 0 0 61-3l432-458a41 41 0 0 0 0-56z" horiz-adv-x="1166" />

<glyph glyph-name="path-128946" unicode="&#xe802;" d="M771 843l477-477a23 23 0 0 0 0-32l-477-477a23 23 0 0 0-32 0 23 23 0 0 0 0 31l439 440h-1155a23 23 0 0 0-23 22 23 23 0 0 0 23 23h1155l-439 439a23 23 0 0 0 0 32 23 23 0 0 0 32-1z" horiz-adv-x="1255" />

<glyph glyph-name="circle-dot-domaintolls-icon" unicode="&#xe803;" d="M313 350a185 185 0 0 0 187 188 187 187 0 0 0 188-188 188 188 0 0 0-188-187 187 187 0 0 0-187 187z m687 0a500 500 0 0 0-500-500 500 500 0 0 0-500 500 500 500 0 0 0 500 500 500 500 0 0 0 500-500z m-500 406a406 406 0 0 1-406-406 406 406 0 0 1 406-406 406 406 0 0 1 406 406 406 406 0 0 1-406 406z" horiz-adv-x="1000" />

<glyph glyph-name="path-123895" unicode="&#xe804;" d="M500 850a500 500 0 1 1 500-500 500 500 0 0 1-500 500z m50-850h-100v100h100z m104 388l-45-46a170 170 0 0 1-59-142h-100v25a201 201 0 0 0 59 142l62 63a98 98 0 0 1 29 70 100 100 0 0 1-200 0h-100a200 200 0 0 0 400 0 159 159 0 0 0-46-112z" horiz-adv-x="1000" />

<glyph glyph-name="path-123897" unicode="&#xe805;" d="M667 517h-48v95a238 238 0 0 1-476 0v-95h-48a96 96 0 0 1-95-96v-476a96 96 0 0 1 95-95h572a96 96 0 0 1 95 95v476a96 96 0 0 1-95 96z m-286-429a95 95 0 1 0 95 95 96 96 0 0 0-95-95z m148 429h-296v95a148 148 0 0 0 296 0z" horiz-adv-x="762" />

<glyph glyph-name="path-1" unicode="&#xe806;" d="M875-150a125 125 0 0 0-88 36l-751 751a125 125 0 0 0 0 176 125 125 0 0 0 177 0l662-661 661 661a125 125 0 0 0 177 0 125 125 0 0 0 0-176l-749-751a125 125 0 0 0-89-36z" horiz-adv-x="1750" />

<glyph glyph-name="target2" unicode="&#xe807;" d="M919 640c0-7-2-14-7-19l-78-77c-5-5-11-8-18-8l0 0h-67l-14-14c50-59 81-135 81-219-1-186-151-336-337-337-186 0-337 151-337 337 0 186 151 337 337 337 84 0 160-31 219-81l14 14v67c0 7 3 13 8 18l77 78c10 10 27 10 37 0 5-5 8-11 8-18v-52h51c15 0 26-12 26-26z m-221-155l-37-36c32-40 51-91 51-146 0-128-104-233-233-233-128 0-233 105-233 233 0 129 105 233 233 233 55 0 106-19 146-51l36 37c-49 41-113 66-182 66-157 0-284-128-284-285 0-157 127-284 284-284 158 0 285 127 285 284 0 70-25 133-66 182z m-74-73l-56-56c9-16 15-34 15-53 0-57-47-103-104-104-57 0-104 47-104 104s47 104 104 104c19 0 37-6 53-15l56 56c-31 23-68 36-109 36-100 0-181-81-181-181 0-100 81-181 181-181s182 81 182 181c0 0 0 0 0 0-1 41-14 78-37 109z m-95-95l-32-32c-5-5-11-8-18-8v0c-14 0-26 12-26 26 0 7 3 14 8 19l31 31c-4 1-8 2-13 2-29 0-52-23-52-52s24-51 52-51 52 23 52 51c0 5-1 9-2 14z m302 297h-15c-15 0-26 12-26 26 0 0 0 0 0 0v15l-26-26v-41h41l26 26z" horiz-adv-x="1000" />

<glyph glyph-name="thumbs-up2" unicode="&#xe808;" d="M335-16c0 0 1 0 1 0l406 15c44 2 80 35 85 78l36 285c0 4 0 7 0 11v0c0 49-39 88-88 88h-142v111c0 80-65 145-145 145-12 0-23-8-25-20l-13-66c-12-59-49-110-101-140l-21-12h-95c-52 0-94-43-94-95v-305c0-52 42-94 94-94l102-1 0 0c0 0 0 0 0 0z m-145 95v305c0 24 19 43 43 43h76v-220c0-14 12-26 26-26 14 0 26 12 26 26v231l14 8c65 37 111 101 125 174l9 44c43-10 73-48 73-92v-136c0-14 12-26 26-26h167c2 0 3 0 5 0 21-3 35-21 32-42l-5-43h-114c-14 0-25-11-25-25 0-14 11-26 25-26h107l-11-85h-96c0 0 0 0 0 0-14 0-26-12-26-26 0-14 11-26 26-26h90l-7-54c-2-18-17-32-35-33l-406-15h-102c-24 0-43 20-43 44z m142 0c-3 2-6 4-9 6-2 2-4 5-5 8-2 3-2 7-2 10 0 7 2 14 7 18 1 2 2 3 4 3 1 1 3 2 4 3 2 0 3 1 5 1 8 2 17-1 23-7 5-4 7-11 7-18 0-3 0-6-2-10-1-3-3-5-5-8-5-5-12-8-18-7l0 0c-3 0-6 0-9 1z" horiz-adv-x="1000" />

<glyph glyph-name="innovation" unicode="&#xe809;" d="M786 458c0 7-3 14-8 19-2 2-3 3-4 4-2 1-3 2-5 2-2 1-3 2-5 2-4 0-7 0-11 0-2-1-4-1-5-2-2 0-3-1-5-2-1-1-2-2-4-4-5-5-8-12-8-19 0-16 13-28 28-28l0 0c3 0 7 1 10 2 3 2 6 4 9 6 0 1 0 1 0 1 5 5 8 12 8 19v0z m-249-488l0 0-37 0c-56 0-101 45-101 101v74c1 39-17 77-49 101-127 92-154 271-62 398 55 74 139 115 225 116h9c57 0 115-18 165-55 44-32 78-77 98-128 5-15-2-31-16-36-15-5-31 2-36 16-31 80-103 136-188 147-126 14-240-76-255-202-1-9-2-18-2-27 0-73 35-142 95-185 27-21 48-49 60-81h47v127c0 0 0 0 0 0 0 32-16 62-43 80-12 8-16 26-7 38 8 13 25 16 38 8 16-10 29-24 40-39 10 15 24 29 39 39 13 8 30 5 39-8s5-29-8-38c-26-18-42-47-43-78 0-1 0-1 0-2v-127h48c12 32 33 60 60 81 26 19 48 43 64 71 8 13 25 17 38 9 12-8 17-24 9-37-20-34-46-64-78-87-31-24-49-61-49-100v-74c1-57-45-102-100-102z m0 55c25 0 46 21 46 46v74c0 3 0 6 0 9h-65l0 0c0 0 0 0 0 0h-64c0-3 0-6 0-9v-74c0-26 20-46 46-46h37z" horiz-adv-x="1000" />

<glyph glyph-name="joy" unicode="&#xe80a;" d="M154-32h-28c-3 2-6 5-8 8v28l203 429c6 13 21 19 33 13 3-2 5-3 8-5l152-153c1 0 1 0 1-1l76-76c10-10 10-26 0-36-2-2-5-3-7-5l-430-202z m39 75l104 48h-80c0 0-1 0-1 0l-23-48z m336 158l-43 43h-193c-2 0-3 0-5 1l-48-103h155c2 0 5 0 7-1l127 60z m-217 94h123l-84 84-39-84z m219 297c-16 41-56 68-100 68-14 0-26-11-26-25-1-14 11-26 25-26 23 0 43-13 52-34 9-24-4-57-36-70-10-4-16-13-16-24 0-14 11-25 25-25l0 0c4 0 7 1 10 2 55 22 84 82 66 134z m207-213c-83 7-138-48-148-59-10-10-9-26 1-36s27-8 36 2c8 8 47 47 107 43 33-3 63-19 85-43 5-5 12-8 19-8v0c6 0 12 2 17 6 10 10 11 26 2 36-31 34-73 55-119 59z m-103 352c7-39 7-79 0-117-14-64-47-121-94-165-6-5-9-12-9-19 0-14 12-25 26-25 6 0 12 2 17 7 56 51 94 118 110 192 9 45 9 92 0 137 0 1-1 1-1 2h-49c-1-4-1-8 0-12z m235-200c-1 1-2 1-3 1-19 3-39 3-58 0-44-7-84-27-116-58-5-4-8-11-8-18 0-14 11-25 25-25h0c7 0 13 2 18 7 24 23 55 39 88 44 14 2 29 2 44 0 3-1 7-1 10 0v49z" horiz-adv-x="1000" />

<glyph glyph-name="customer-focus" unicode="&#xe80b;" d="M792 192c3 3 5 6 6 9 2 3 2 7 2 11 0 9-4 18-12 23-2 1-3 2-5 3-2 0-3 1-5 1-2 0-4 1-6 1-15 0-28-13-28-28 0-8 3-15 9-20 5-5 12-8 19-8l0 0c4 0 8 0 11 2 4 1 7 3 9 6z m60 197c37-36 57-85 57-136 0-18-5-34-15-48-5-8-14-12-23-12-15 0-28 12-28 28 0 6 2 12 6 16 3 5 5 10 5 16 0 36-15 71-41 96-27 26-62 40-100 40-2 0-5 0-7 1-7-2-13-4-20-6-10-2-20-3-30-3l0 0c-19 0-38 4-55 11l-1-10c-2-42-19-80-45-110 43-9 83-31 115-61 46-44 72-105 72-168 0-29-13-55-34-73h-565c-21 18-34 44-34 73 0 63 26 124 72 168 30 29 68 49 108 60-28 30-45 71-47 115l-4 61c-5 98 71 183 170 188 3 1 6 1 10 1h7c31 0 59-8 85-22 14 63 68 111 136 114 2 0 5 1 8 1h5c82 0 148-67 148-148 0-3 0-6 0-9l-3-48c-1-33-13-64-33-88 30-9 58-25 81-47z m-558 68c0-3 0-5 1-7l3-61c2-56 41-104 95-118 67-15 133 26 149 93 1 7 2 14 3 21l3 65c4 68-48 126-116 130-2 0-5 0-7 0h-7c-69 0-124-55-124-123z m338-287c-36 33-84 52-133 52-4 0-8 1-12 3-20-8-43-13-66-13-13 0-27 1-40 4-7 2-14 4-21 7-2 0-4-1-6-1 0 0-1 0-1 0-49 0-97-18-133-52-35-34-54-80-54-128 0-22 17-39 39-39 0 0 0 0 0 0h442c22 0 40 17 40 39-1 49-21 95-55 128z m43 269c42 10 72 46 73 89l3 48c3 51-36 94-87 97-1 0-3 0-5 0h-6c-50 0-92-41-92-92 0-2 0-3 0-5l1-4c26-31 42-71 42-115 0-1 0-2 0-3 21-15 46-20 71-15z m203-233c0 0 0 0 0 0 0 0 0 0 0 0l0 0z" horiz-adv-x="1000" />

<glyph glyph-name="star" unicode="&#xe80c;" d="M900 428c-1-6-4-11-8-16l-186-181c-11-11-29-11-40 0-11 11-11 28 0 39 0 1 0 1 0 1l146 142-201 29c-9 2-17 7-21 16l-90 182-90-182c-4-9-12-14-21-16l-202-29 146-142c7-6 10-16 8-25l-34-200 180 94c8 5 18 5 26 0l230-121c13-7 19-24 11-37-4-9-14-15-24-15-5 0-9 1-13 3l-217 114-217-114c-5-2-9-3-13-3h-1c-10 0-19 5-24 15-3 5-4 11-3 17l42 242-176 171c-5 6-8 13-8 20v0c0 7 2 14 8 20 4 4 10 7 16 8l242 35 109 220c7 14 24 19 37 13 6-3 10-7 13-13l109-220 242-35c15-2 26-16 24-32z m-166-294c0 1-1 3-1 5-1 2-2 3-3 5-1 2-2 3-3 4-2 2-3 3-5 4-1 1-3 2-5 2-1 1-3 2-5 2-4 1-7 1-11 0-3-1-7-2-10-4-1-1-3-2-4-4-1-1-2-2-4-4-1-2-1-3-2-5-1-3-2-7-2-11 0-3 0-7 2-10 1-4 3-7 6-9 5-6 12-9 19-9 4 0 8 1 11 2 13 5 20 18 17 32z m-27-34c0 0 0 0 0 0 0 0 0 0 0 0l0 0z" horiz-adv-x="1000" />

<glyph glyph-name="fight-back" unicode="&#xe80d;" d="M356 277c0 0-1 0-1 0-18 0-32-15-32-33 1-17 15-32 33-31 1 0 2 0 3 0 142 1 256 116 256 258s-117 257-259 256c0 0-1 0-1 0-18 0-32-15-32-33 1-17 15-32 33-31 106 0 193-87 193-193 0 0 0-1 0-1 0-107-87-192-193-192z m-226 225c-15-1-28-12-31-27v-11c3-15 16-27 32-27h212l-58-57c-12-13-12-33 0-45s33-13 46 0l112 112c0 0 0 0 0 0 13 13 13 33 0 45l-112 113c-13 12-33 12-46 0-12-13-12-33 0-46l58-57h-212c0 0 0 0-1 0z m775-331c0-9-4-18-11-24l-238-202c-5-4-11-6-17-7h-1c-7 0-15 4-20 10-5 6-7 15-5 24l49 172h-79c-18 0-31 14-31 32 0 9 4 17 10 23l239 204c4 4 10 6 17 6 14 0 26-12 26-26 0-2 0-5-1-7l-49-173h79c18 0 32-14 32-32z m-65-12h-75c-7 0-13 3-18 9-4 5-5 12-3 19l41 144-167-143h73c7 0 14-3 18-9 4-5 5-12 4-19l-41-144 168 143z m39 351c-2 1-4 1-6 2-17 3-33-8-36-24 0-2-1-4-1-6 0-2 1-4 1-6 0-2 1-4 2-6 0-2 1-4 3-5 1-2 2-4 4-5 5-6 13-9 21-9 2 0 4 0 6 1 2 0 4 1 6 1 2 1 4 2 5 3 2 2 4 3 5 4 1 2 3 3 4 5 2 3 3 7 4 11 1 2 1 4 1 6 0 8-3 16-9 22-1 1-3 2-5 4h0c-2 0-3 1-5 2z" horiz-adv-x="1000" />

<glyph glyph-name="defend" unicode="&#xe80e;" d="M202 460v10c0 54 26 105 70 137l175 127c48 35 112 35 160 0l175-127c44-32 69-83 70-137v-12c-1-194-94-377-251-492-21-15-47-23-73-24h-1c-27 0-53 9-74 24-158 116-251 299-251 494z m283-450c4-3 9-6 15-8v378c-81 2-162 10-241 26 15-157 97-302 226-396z m310 396c-79-16-160-24-241-26v-378c5 2 10 5 15 8 129 94 210 239 226 396z m-220 284c-6 5-13 9-21 11v-267c80 2 160 10 238 26 2 0 4 1 6 1v9c0 36-18 71-48 93l-175 127z m-319-220v-9c2 0 4-1 5-1 79-16 159-25 239-26v267c-8-3-15-6-22-11l-175-127c-29-22-47-56-47-93z" horiz-adv-x="1000" />

<glyph glyph-name="awareness" unicode="&#xe80f;" d="M363 264c0-1 1-1 1-2 0 0-1 1-1 2l0 0z m-6 20c0-1 0-1 0-2 0 1 0 2 0 2 0 0 0 0 0 0z m0-4c0-1 0-2 0-3 0 1 0 2 0 3z m510 123c0 0 0 1 0 1 0-1 0-2 0-2 0 0 0 1 0 1z m-488-147c0 0 1 0 2 0-1 0-2 0-2 0z m-4 1c0 0 1 0 2-1-1 0-2 1-3 1 0 0 0 0 1 0z m303 413c-1 1-2 2-3 2 1-1 2-1 3-2z m-4 2c-1 0-2 1-3 1 1 0 2-1 3-1z m4-2c2-2 4-3 5-5-1 2-3 3-5 5z m162-284c0 0 1 0 1 0-1 0-2 0-2 0 0 0 1 0 1 0z m-170 287c-1 0-1 0-1 0 0 0 0 0 1 0z m243-282c-2-9-5-17-10-24-22-32-65-40-97-18-32 22-40 66-18 97l-103 140c-11-4-23-4-34-2-2 0-4 1-6 2l-208-270c10-16 13-34 9-52-8-37-45-60-82-52-37 8-60 45-51 82v0c8 37 45 60 81 52 2-1 4-2 6-2l208 270c-15 23-15 53 1 75 13 20 34 30 55 30h3c12 0 25-4 37-11 31-22 39-64 18-95l103-140c20 7 42 3 60-9 14-10 24-25 28-41v-32z m-556-109c0 1 0 2 1 2 0 0 0 0 0 0-1-1-1-1-1-2z m0-4c0 0 0 1 0 2 0-1 0-2 0-2z m7-16c0 1-1 1-1 2l0 0c0-1 1-2 1-2z m12-6c0 0-1 1-2 1 0 0 0 0 0 0 1-1 2-1 2-1z m5 0c-1 0-2 0-2 0 0 0 1 0 2 0z m288 417c0 0 0 0 0 0 0 0 0 0 0 0z m9-3c-1 1-2 2-3 2 1-1 2-1 3-2z m-4 2c-1 0-2 1-3 1 1 0 2-1 3-1z m10-7c-2 2-4 4-5 5 1-2 3-3 5-5z m157-279c-1 0-2 0-2 0 0 0 0 0 1 0 0 0 0 0 1 0z m26 18c0-1 0-2 0-2 0 0 0 1 0 1 0 0 0 1 0 1z m-528 27c13 4 27 6 42 6h0c12 0 24-2 35-4 13-3 25 5 27 17 3 12-5 24-17 27-110 26-220-44-246-154-25-111 44-221 155-246 110-25 220 44 246 154 3 15 5 31 5 46 0 18-3 36-8 54-3 12-15 19-28 16-12-3-19-16-16-28 24-85-27-173-112-196s-173 27-196 112 27 173 113 196z m363-214c2 12-6 24-18 27h0c-13 2-25-6-27-18 0 0 0 0 0 0-29-153-175-254-328-225-153 28-254 175-225 328 25 133 141 230 276 230 18 0 36-2 54-5 12-2 24 6 26 18 2 12-5 24-17 26-21 4-42 6-63 6-180 0-327-146-327-327 0-180 146-326 326-327h2c157 0 292 112 321 267z m-25 104c3 0 6 0 9 1 3 1 5 3 7 5 2 2 4 5 5 8 1 2 2 5 2 8 0 6-2 12-7 16-5 6-13 8-20 7l0 0c-2-1-3-1-5-2-1 0-2-1-3-2-2 0-3-1-4-2-4-5-6-10-6-16 0-3 0-6 1-9 2-3 3-5 5-7 4-5 10-7 16-7z" horiz-adv-x="1000" />

<glyph glyph-name="risk-scoring" unicode="&#xe810;" d="M879 349c0 0 0 0 0 0-27 0-48-21-48-48 0 0 0 0 0 0 0-26 21-47 48-47 0 0 0 0 0 0 26 0 47 21 47 48 0 0 0 0 0 0 1 26-21 47-47 47z m-670-287c-26 0-48-21-48-48s22-47 48-47 48 21 48 48c0 0 0 0 0 0 0 26-22 47-48 47z m574 0c-26 0-48-21-48-48 0 0 0 0 0 0 0-26 21-47 48-47 26 0 48 21 48 48s-21 47-48 47z m0 479c0 0 0 0 0 0 27 0 48 21 48 48 0 0 0 0 0 0 0 26-21 47-48 47 0 0 0 0 0 0-26 0-48-21-48-48 0 0 0 0 0 0 0-26 22-47 48-47z m-44-239c0-132-107-239-239-240 0 0 0 0 0 0-132 0-239 107-240 239 0 0 0 0 0 0 0 132 107 239 239 240 0 0 0 0 0 0 133 0 240-107 240-239 0 0 0 0 0 0z m-72 0c0 78-55 146-132 163v-163c0-20-16-36-35-36 0 0 0 0-1 0-19 0-36 16-36 35 0 0 0 0 0 1v163c-76-16-131-84-131-162-1-93 74-168 166-169 1 0 1 0 1 0 93 0 168 75 168 168 0-1 0-1 0 0z m-506 0c0 26-21 47-48 47 0 0 0 0 0 0-26 0-47-21-47-48 0 0 0 0 0 0 0-26 21-47 48-47 0 0 0 0 0 0 26 0 47 21 47 48 0 0 0 0 0 0z m335 334c0 0 0 0 0 0 26 0 48 22 48 48 0 0 0 0 0 0 0 27-21 48-48 48 0 0 0 0 0 0-26 0-48-21-48-48 0 0 0 0 0 0 0-26 22-48 48-48z m-287-95c0 0 0 0 0 0 27 0 48 21 48 48 0 0 0 0 0 0 0 26-21 47-48 47-26 0-48-21-48-48 0 0 0 0 0 0 0-26 22-47 48-47z" horiz-adv-x="1000" />

<glyph glyph-name="global" unicode="&#xe811;" d="M916 348c0-229-185-415-415-415s-415 186-415 415 186 415 415 415 415-185 415-415z m-275 307c25-47 43-98 53-151h106c-34 67-91 120-159 151z m-253-151h226c-8 35-20 70-36 103-35 67-65 79-77 79-12 0-44-12-77-79-16-33-28-67-36-103z m-215-233h124c-2 25-3 51-3 77s1 53 3 78h-124c-6-25-9-52-9-78 0-26 3-52 9-77z m189-230c-25 48-43 99-53 152l0 0h-107c35-67 91-120 160-152z m0 614c-69-31-125-84-160-151h107c10 53 28 104 53 151z m252-462h-226c8-36 20-71 36-103 33-67 65-79 77-79 12 0 43 12 78 79 15 33 27 67 35 103z m17 155c0 26-1 52-4 78h-251c-3-26-4-52-4-78 0-26 1-52 4-77h251c3 25 4 51 4 77z m169-155h-106c-10-53-28-104-53-152 68 32 125 85 159 152z m29 78c6 25 9 51 9 77 0 27-3 53-9 78h-124c3-25 4-51 4-78s-1-52-4-77h124z" horiz-adv-x="1000" />

<glyph glyph-name="predictive-risk" unicode="&#xe812;" d="M927 216v-106c0-44-36-80-80-80h-134v-14c0-22-18-40-40-40-22 0-40 18-40 40v14h-479c-44 0-80 35-80 80v106c0 44 36 80 80 80h480v14c0 22 17 40 39 40 0 0 0 0 1 0 22 0 40-18 40-40 0 0 0 0 0 0v-14h133c44 0 80-36 80-80z m-560 0h-213v-106h213v106z m267 0h-187v-106h187v106z m213 0l-134 0v-106h134v106z m80 387v-107c0-44-36-80-80-80h-293v-13c0-22-18-40-40-40-22 0-40 18-40 40 0 0 0 0 0 0v13h-320c-44 0-80 36-80 80v107c0 44 36 80 80 80h320v13c0 22 18 40 40 40 0 0 0 0 0 0 22 0 40-18 40-40 0 0 0 0 0 0v-13h293c44-1 80-36 80-80z m-666 0h-107v-107h107v107z m213 0h-133v-107h133v107z m373 0h-293v-107h293v107z" horiz-adv-x="1000" />

<glyph glyph-name="iris-enrich-api" unicode="&#xe813;" d="M913 609c0 0 0 0 0 0 0-21-17-39-38-39 0 0 0 0-1 0h-491c-21 0-39 17-39 39 0 0 0 0 0 0l0 0c0 21 18 39 39 39 0 0 0 0 0 0h491c22 0 39-17 39-39z m-38-220h-285c0 0 0 0 0 0-22 0-39-17-39-39l0 0c0 0 0 0 0 0 0-21 17-38 39-38h284c0 0 0 0 0 0 22 0 39 17 39 38 0 22-17 39-38 39z m0-259h-285c0 0 0 0 0 0-22 0-39-17-39-38l0 0c0 0 0 0 0 0 0-22 17-39 39-39h284c22 0 39 17 39 39 0 21-17 38-38 38z m-466 298h-78c0 0 0 0 0 0-21 0-39-17-39-39h-90v142c0 0 0 0 0 0 21 0 39 18 39 39v78c0 21-18 39-39 39l0 0h-78c-21 0-38-18-38-39v-78c0 0 0 0 0 0 0-21 17-38 38-38v-389c0-50 41-90 91-90h78c0 0 0 0 0-1 0-21 17-38 38-38h78c0 0 0 0 0 0 22 0 39 17 39 38v78c0 0 0 0 0 0 0 22-17 39-39 39h-78c0 0 0 0 0 0-21 0-39-17-39-39h-77c-7 0-13 6-13 13v168h91c0 0 0 0 0 0 0-21 17-39 38-39h78c0 0 0 0 0 0 22 0 39 18 39 39v78c0 0 0 0 0 0 0 22-18 39-39 39z" horiz-adv-x="1000" />

<glyph glyph-name="app-enrich" unicode="&#xe814;" d="M760 325c4-1 8-2 11-2v0c16 0 29 13 29 29 0 2 0 4 0 6-1 2-1 4-2 5-1 2-1 4-3 5-1 2-2 3-3 5-12 10-30 10-41 0-2-2-3-3-4-5-1-2-2-3-3-5 0-2-1-4-1-5-1-2-1-4-1-6 0-8 3-15 8-21 4-2 7-4 10-6z m-696 260c0 14 11 26 25 28l755 114h37c8-4 14-12 15-22 1-1 1-3 1-4v-697c0-16-13-29-29-29 0 0 0 0 0 0-2 0-3 0-5 0l-774 116c-14 2-25 15-25 29v465z m58-25v-179h175c16 0 29-13 29-29 0-16-13-29-29-29h-175v-178l716-107v629l-716-107z m287-253c0 5 1 10 3 14l137 262c7 14 25 20 39 12 10-5 16-15 16-25v-117h108c16 0 29-13 29-29 0-5-1-10-3-14l-137-262c-5-10-15-16-26-16-16 0-29 13-29 29 0 0 0 0 0 0v117h-108c-16 0-29 13-29 29z m77 29h89c16 0 29-13 29-29v-28l60 115h-89c-16 0-29 13-29 29v28l-60-115z" horiz-adv-x="1000" />

<glyph glyph-name="check-badge" unicode="&#xe815;" d="M332 18l144-71h51l144 71c99 49 162 150 162 260v447c0 4-1 9-3 12-5 10-14 15-24 15h-2c-4 0-9-1-13-3-89-47-188-72-290-72-101 0-200 25-290 72-4 2-8 3-13 3h0c-16 0-28-12-28-28v-443c-1-111 62-213 162-263z m-105 660c86-38 180-58 275-58 94 0 188 20 275 58v-397c0-90-51-172-131-212l-144-72-144 72c-81 40-132 122-131 212v397z m425-248c-5 6-8 13-8 20 0 10 4 19 12 24 2 1 4 2 5 3 2 0 4 1 6 1 15 3 30-7 33-22 0-2 1-4 1-5 0-16-13-29-29-29l0 0c-7 0-15 3-20 8z m-322-138c-11 11-11 29 0 41 11 11 29 11 40 0l72-72 130 130c11 11 29 11 40 0s11-29 0-41l-150-150c-5-5-12-8-20-8l0 0c-7 0-14 3-20 8l-92 92z" horiz-adv-x="1000" />

<glyph glyph-name="target" unicode="&#xe816;" d="M719-10c13 9 17 26 10 39-8 14-26 19-40 11-86-52-191-67-288-39-192 54-304 255-249 447 54 192 254 304 447 250 192-55 304-255 249-447-4-16 5-32 21-37 15-4 32 5 36 21 10 36 15 73 16 111v6c-2 231-189 417-420 417-232 0-421-188-421-420 0-232 188-420 420-421l0 0c77 0 153 22 219 62z m81 79c4 0 8 1 11 3 4 1 7 3 10 6 7 7 10 17 8 26-1 2-1 4-2 6-1 1-2 3-3 5-1 1-2 3-3 4-12 11-30 11-42 0-1-1-2-3-3-4-1-2-2-4-3-5-1-2-1-4-2-6 0-2 0-3 0-5 0-16 13-29 29-30l0 0z m-173 280c0-70-57-127-127-127-70 0-127 57-127 127 0 71 57 128 127 128 70-1 127-58 127-128z m-59 0c0 38-30 69-68 69-38 0-68-31-68-69s30-68 68-68 68 30 68 68z m201 0c0 0 0 0 0 0 0-148-121-269-269-269-149 0-269 121-269 269 0 149 120 269 269 269 149 0 269-120 269-269z m-59 0c0 116-94 211-210 211-116 0-210-95-210-211s94-210 210-210 210 94 210 210c0 0 0 0 0 0z" horiz-adv-x="1000" />

<glyph glyph-name="phishing2" unicode="&#xe817;" d="M110 229c0 0 0 0 0 0v451c0 14 12 26 27 26h706c15 0 27-12 27-26v-396c0-15-12-27-27-27-14 0-26 12-26 27v369h-654v-271c45 58 116 94 194 94 137 0 248-110 248-247 0-18-2-36-6-53h40c5 0 9-1 13-3l204-106c9-5 14-14 14-23v0c0-5-1-9-3-13-5-9-14-14-24-14-4 0-8 1-12 3l-198 103h-52c-40-84-125-142-224-142-136 1-247 111-247 248z m53 2v-2c0 0 0 0 0 0 0-107 87-194 194-194 83 0 154 52 182 125 0 0 0 0 0 0 8 21 13 45 13 69 0 108-87 195-195 195-106-1-193-87-194-193z m88-85v89c0 11 8 21 18 25v1c0 49 40 89 88 89 49 0 89-40 89-89v-1c10-4 17-14 17-25v-89c0-14-12-26-26-26v0h-159c-15 0-27 12-27 26z m159 62h-106v-35h106v35z m-88 53h71c0 20-16 35-36 35s-35-15-35-35z m546-64c-1 1-1 3-2 4-1 2-2 3-4 4-6 6-15 9-24 8-1-1-3-1-5-2-1-1-3-1-4-2-2-1-3-2-4-4-2-1-3-2-4-4-1-1-1-3-2-4-1-2-1-4-1-5-1-2-1-4-1-5 0-4 1-7 2-10 1-4 3-7 6-9 5-5 11-8 18-8l0 0c4 0 7 1 10 2 4 2 7 4 9 6 2 3 4 6 6 9 1 3 2 6 2 10v0c0 1-1 3-1 5 0 1 0 3-1 5z" horiz-adv-x="1000" />

<glyph glyph-name="finger-print" unicode="&#xe818;" d="M370-20c-15 0-28 13-28 28v246c2 89 75 160 164 158 86-2 156-71 158-158v-170c0-16-13-28-29-28-15 0-28 12-28 28v170c1 58-45 105-103 106-57 0-105-46-105-103 0-1 0-2 0-3v-246c0-15-13-28-29-28z m161 199v56c0 16-12 29-28 29-16 0-28-13-28-29v-56c0-16 12-29 28-29 16 0 28 13 28 29z m237-161c0 0 0 0 0 0 0 0 0 0 0 0l0 0z m26 17c2 4 2 7 2 11 0 2 0 4 0 5-1 2-1 4-2 6-1 1-2 3-3 5-1 1-2 3-3 4-2 1-3 2-5 4-1 1-3 2-5 2-1 1-3 1-5 2-11 2-23-3-29-12-1-2-2-4-3-5 0-2-1-4-1-6-1-1-1-3-1-5 0-4 1-7 2-11 4-10 15-17 26-17 12 0 23 7 27 17z m-26 77c0 0 0 0 0 0 0 0 0 0 0 0l0 0z m-28 161v-132c0-16 12-28 28-28 16 0 28 12 28 28v132c0 162-131 294-293 294s-293-132-293-294v-38c0 0 0 0 0 0 0-15 12-28 28-28s28 13 28 28v38c0 131 106 237 237 237s237-106 237-237z m163 164c-44 124-144 220-270 261-40 13-80 19-120 20h-20c-177-4-339-118-396-295-1-3-1-6-1-9v0c0-12 8-23 20-27 15-5 31 3 35 18 37 113 126 202 239 239 194 62 402-45 464-239 4-11 15-19 27-19 3 0 6 0 9 1 5 2 10 5 13 9v41z m-637-429v95c0 0 0 0 0 0 0 16-12 28-28 28-16 0-28-12-28-28v-95c0-15 12-28 28-28 16 0 28 13 28 28z" horiz-adv-x="1000" />

<glyph glyph-name="computer-desktop" unicode="&#xe819;" d="M130 181l0 0v565c0 15 12 27 27 27h0 707c8 0 15-3 19-8v-603c-4-5-11-8-19-8 0 0 0 0 0 0v0h-327v-88h29c15 0 27-11 27-26 0-8-3-15-8-20h-235c-5 5-8 12-8 19 0 15 12 27 26 27 1 0 1 0 1 0h115v88h-327c-15 0-27 12-27 27z m708 26v71h-301v-9c0-15-12-27-27-27 0 0 0 0 0 0-14 0-26 12-26 27 0 0 0 0 0 0v9h-300v-71h322c1 0 3 1 4 1 2 0 4 0 6-1h322z m-654 513v-389h322c1 0 3 0 4 0 2 0 4 0 6 0h322v389h-654z m484-700c5 5 7 12 7 19 0 7-2 14-7 19-2 1-3 2-4 3-2 1-3 2-5 2-2 1-3 2-5 2-3 1-7 1-10 0-2 0-4-1-5-2-2 0-3-1-5-2-1-1-3-2-4-3-5-5-8-12-8-19 0-7 3-14 8-19 0 0 0 0 0 0h37c0 0 0 0 1 0z m-161 222c0 0 0 0 0 0" horiz-adv-x="1000" />

<glyph glyph-name="ti-feed" unicode="&#xe81a;" d="M883 663c0 39-31 70-70 70 0 0 0 0 0 0h-626c-39 1-70-31-70-70 0 0 0 0 0 0v-626c0-39 31-70 70-70 0 0 0 0 0 0h626c39 0 70 31 70 70 0 0 0 0 0 0l0 626z m-76-563c0-31-25-57-56-57 0 0-1 0-1 0h-501c-31 0-56 25-56 56 0 0 0 1 0 1v500c0 31 25 57 56 57 0 0 0 0 0 0h501c31 0 57-25 57-56 0 0 0-1 0-1l0-500z m-460 343h88c2 34 26 55 62 55 35 0 59-20 59-48 0-29-12-43-54-67-43-26-61-53-56-104l0-16h85v17c0 29 12 44 55 68 45 26 67 58 67 105 0 72-60 121-151 121-97 1-153-52-155-131z m146-330c36 0 58 20 58 54 0 33-22 53-58 53-36 0-59-20-59-53 0-34 23-54 59-54l0 0z" horiz-adv-x="1000" />

<glyph glyph-name="smiley-face" unicode="&#xe81b;" d="M501 201c46 0 90 19 121 52 14 15 37 16 52 2 15-14 16-37 2-52-45-49-109-77-175-76-67-1-131 27-176 76-14 14-14 37 0 51 1 1 1 1 2 2 15 14 39 13 52-2 32-35 76-54 122-53z m-60 190l0 1c0 0-1 1-1 1-1 1-2 3-4 5-4 4-10 10-16 17-14 11-29 21-43 21s-29-10-43-21c-6-7-12-13-16-17-2-2-4-4-4-5-2-1-1-1-1-1l0-1c-3-4-9-6-14-4-5 2-8 6-9 12 1 27 10 53 26 75 15 20 37 36 61 36s46-16 61-36c16-22 25-48 26-75 0-6-4-10-9-12-5-2-11 0-14 4z m248 0l-1 1c0 0 0 1-1 1-1 1-2 3-4 5-4 4-9 10-16 17-13 11-29 21-43 21-13 0-29-10-43-21-6-7-12-13-15-17-2-2-5-4-5-5-2-1 0-1-1-1l0-1c-3-4-9-6-14-4-5 2-8 6-8 12 0 27 9 53 25 75 15 20 37 36 61 36 24 0 46-16 61-36 17-22 26-48 26-75 0-6-3-10-9-12-5-2-10 0-13 4z m208-42c0-218-178-396-396-396s-396 178-396 396 177 396 396 396 396-177 396-396z m-396 322c-178 0-322-144-322-321 0 0 0 0 0 0 0-178 144-322 322-322 0 0 0 0 0 0 177 0 321 144 321 322 0 0 0 0 0 0 0 177-144 321-321 321 0 0 0 0 0 0z" horiz-adv-x="1000" />

<glyph glyph-name="lightbulb" unicode="&#xe81c;" d="M211 306l-76-44c-10-5-16-16-16-28 0-12 6-23 16-29 10-5 23-5 33 1l75 44c15 9 20 28 12 44-9 15-29 21-44 12z m32 316l-75 43c-10 6-23 6-33 1-11-6-17-17-17-29 0-12 7-23 17-28l75-44c10-6 23-6 33-1 11 6 17 17 17 29 0 12-6 23-17 29z m-26-186c0 18-14 32-32 32h-87c-18 0-33-14-33-32 0-18 15-33 33-33h87c18 0 32 14 32 33 0-1 0 0 0 0z m557 125c5 0 11 1 16 4l75 44c16 9 21 28 12 44-9 15-29 21-44 12l-76-43c-13-8-19-23-15-37 4-14 17-24 32-24l0 0z m129-93h-87c-18 0-33-14-33-32 0 0 0 0 0 0 0-18 15-33 33-33 0 0 0 0 0 0h87c18 0 32 15 32 33 0 18-14 32-32 32 0 0 0 0 0 0l0 0z m-38-206l-75 44c-10 6-23 6-33 1-10-6-16-17-16-29 0-12 6-23 16-28l76-44c15-9 35-3 44 12 8 16 3 35-12 44l0 0z m-365 435c-132 0-239-107-239-238 0-58 21-114 59-158 23-25 58-79 71-124 0 0 0-1 0-1h218c0 0 0 1 0 1 14 45 49 99 71 124 39 44 60 100 59 158 0 131-107 238-239 238z m131-354c-26-31-49-66-66-103h-129c-18 37-40 71-67 103-28 32-43 73-43 116 0 95 77 172 172 173 1 0 1 0 1 0 96 0 175-77 176-173-1-43-16-84-44-116l0 0z m-239-264c0-9 2-17 7-24l23-35c9-12 22-19 37-20h84c14 1 27 8 36 20l23 35c5 7 7 15 8 24v52h-218v-52z m86 509c-60 0-108-49-108-109 0-12 9-21 21-21 0 0 0 0 0 0 12 0 22 9 22 21 0 36 29 66 65 66 12 0 22 9 22 21 0 0 0 0 0 0 0 12-10 22-22 22z" horiz-adv-x="1000" />

<glyph glyph-name="teamwork" unicode="&#xe81d;" d="M240 568c35 0 63 29 63 64 0 0 0 0 0 0 0 35-28 64-63 64-36 0-65-28-65-63 0-35 29-64 65-65z m516 0c35 0 64 29 64 64 0 0 0 0 0 0 1 35-28 64-63 64 0 0 0 0 0 0-36 1-65-27-65-62 0-1 0-1 0-1 1-35 29-64 64-65z m119-209l-24 105c-7 24-23 43-45 53-23 10-48 9-70-3-34-19-54-64-63-89l-16-47c-1-3-3-5-5-6l-24-14v167c0 12-9 21-20 21h-217c-12 0-21-9-21-21v-165l-25 12c-2 2-3 4-4 6l-17 47c-8 25-28 70-63 89-21 12-47 13-69 3-22-10-39-29-45-53l-26-106c-6-28 3-58 25-77l93-80c8-7 13-18 14-29l11-135c1-17 16-30 33-29 1 0 1 0 2 1 17 1 30 17 28 34 0 0 0 0 0 0l-11 148c-2 20-12 39-27 52l-69 59 33 125c4-7 27-70 27-70 5-16 16-29 29-39l50-26c6-4 13-5 20-5h237c6 0 13 1 19 5l49 26c15 9 25 23 30 39 0 0 23 63 26 70l34-125-71-61c-15-13-25-32-26-53l-12-147c-1-17 11-32 28-34 18-2 33 11 35 28l11 135c1 11 6 22 15 29l92 81c25 18 36 49 29 79z m-313-6h-128v129h128v-129z m366-302l-72 176-52-45 64-156c7-16 26-24 43-17 16 7 23 25 17 42l0 0z m-858 0c-7-17 1-36 18-43 16-6 35 2 42 18l63 156-51 45-72-176 0 0z" horiz-adv-x="1000" />

<glyph glyph-name="impact" unicode="&#xe81e;" d="M438 283h-139c-132 0-239-107-239-239 0-26 22-47 48-47 0 0 0 0 0 0h520c27 0 48 21 48 47 0 0 0 0 0 0 0 132-107 239-238 239z m-311-220c10 87 84 154 172 154h139c88-1 161-67 171-154h-482z m241 286c98 0 176 78 176 176s-78 176-176 176-176-79-176-177 79-175 176-175z m0 285c61 0 110-49 110-110 0-60-49-110-110-110-60 0-110 50-110 110 0 61 50 110 110 110z m561-118c-13 12-34 11-46-2l-120-129-53 53c-13 13-33 13-46 0-13-13-13-34 0-47l77-77c6-6 14-10 23-10h1c9 0 17 4 23 11l143 154c13 13 12 34-2 47l0 0z" horiz-adv-x="1000" />

<glyph glyph-name="thumbs-up" unicode="&#xe81f;" d="M243 453h-103c-28 0-50-22-51-50v-357c0-28 23-50 50-50 1 0 1 0 1 0h103c28 0 51 22 51 50v356c0 28-23 51-51 51z m667-57c0 59-48 107-107 107h-160c15 40 23 75 23 95 0 61-49 110-110 110 0 0-1 0-2 0-75 0-95-52-112-93-50-129-96-107-96-150 0-22 17-39 38-39 9 0 18 3 24 9 123 98 93 196 146 196 19 1 35-13 36-32 0 0 0-1 0-1 0-12-13-63-41-115-4-5-5-12-5-18 0-21 17-38 37-37 0 0 1 0 1 0h221c17-1 30-15 30-32 0-16-12-29-28-30-21-1-36-18-36-38 0-25 18-26 18-47 0-40-56-19-56-67 0-18 10-21 10-36 0-36-48-22-48-65 0-8 2-10 2-15 0-17-14-31-30-31h-85c-41 0-81 14-114 39l-59 44c-7 5-15 7-23 7-21 0-39-17-39-38 0-12 6-24 16-31l58-44c47-35 103-53 161-54h85c56 0 103 44 107 100 29 20 46 53 46 88 0 5 0 10-1 15 29 20 47 53 47 88 0 9-1 17-3 25 30 20 49 54 49 90z" horiz-adv-x="1000" />

<glyph glyph-name="integrity" unicode="&#xe820;" d="M921 370l-154 60c-10 4-21 4-30 0l-155-60c-13-5-23-18-24-33 0-149 93-253 179-287 9-3 20-3 30 0 68 26 178 119 178 287-1 15-10 28-24 33z m-169-257v254l128-50c-8-117-82-182-128-204z m-365 277c95 0 171 77 171 172s-76 171-171 171-172-77-172-171 77-172 172-172z m0 279c59 0 107-48 107-107 0-60-48-108-107-108-60 0-108 48-108 108 1 59 49 107 108 107z m266-621c-23 18-44 39-62 63h-439c11 86 84 150 170 150h129c26 0 52-6 76-18-6 24-10 48-11 73-21 6-43 10-65 10h-129c-130 0-236-106-236-236 0-24 20-43 43-43h516c2 0 6 0 8 1z" horiz-adv-x="1000" />

<glyph glyph-name="app-enrichment" unicode="&#xe821;" d="M837 269l1 63c0 58-47 105-105 106-58 0-105-47-106-106v-63c-23 0-42-19-42-42 0 0 0 0 0 0v-167c0-23 18-43 42-43 0 0 0 0 0 0h210c23-1 43 18 43 42 0 0 0 1 0 1v167c0 23-19 42-43 42 0 0 0 0 0 0z m-62 0h-84v63c0 24 19 42 42 42 23 0 42-19 42-42l0-63z m-179 169c17 0 31 14 31 31v39c0 22-9 44-24 60l-98 98c-16 15-38 24-60 24h-239c-46 0-84-38-84-84 0 0 0 0 0 0v-505c0-46 38-84 84-84 0 0 0 0 0 0h306c17 0 31 14 31 31 0 0 0 0 0 0v1c0 17-14 31-31 31h-306c-11 0-21 9-21 21 0 0 0 0 0 0v505c0 11 10 21 21 21 0 0 0 0 0 0h211v-104c0-24 19-42 42-42h105v-11c0-18 13-32 31-33 0 0 0 0 0 0 0 1 1 1 1 1z" horiz-adv-x="1000" />

<glyph glyph-name="threat-hunting" unicode="&#xe822;" d="M403 492c11 3 21 4 32 4h142c25 0 49-7 70-20l92 92c11 12 29 12 41 1 0 0 0 0 1-1 11-10 13-27 3-39-1-1-2-2-3-3l-91-93c13-21 20-45 19-70h92c17 0 30-13 31-30 0 0 0 0 0 0 0-17-14-30-31-31 0 0 0 0 0 0h-91v-10c0-12-1-25-4-37l195-153c14-10 16-29 6-43-11-13-30-15-43-5l-753 591c-13 10-16 29-5 43 0 0 0 0 0 0 10 13 29 15 43 5l254-201z m75-57l171-134v62c0 40-32 72-71 72l-100 0z m150 142v-5c0-20-16-36-36-36 0 0 0 0 0 0h-172c-20 0-36 16-36 36 0 0 0 0 0 0v5c0 67 54 121 121 122 0 0 1 0 1 0 68 0 122-55 122-122l0 0z m-325-214c0 16 3 32 8 47l53-40c0-3 0-5 0-7v-71c0-67 47-125 112-139v127l61-48v-79c23 5 44 15 62 30l48-38c-38-36-88-57-141-57-53 0-104 21-142 59l-92-89c-10-12-27-13-39-4-1 1-2 2-3 4-12 11-12 29-1 41 1 0 1 0 1 1l97 96c-16 30-24 63-24 96v10h-92c-17 0-31 14-31 31 0 0 0 0 0 0 0 17 14 30 31 30 0 0 0 0 0 0l92 0 0 0z" horiz-adv-x="1000" />

<glyph glyph-name="forensics" unicode="&#xe823;" d="M853 640l-322 134c-10 4-20 6-31 6-11 0-21-2-31-6l-322-134c-29-12-49-41-49-73 0-432 317-644 401-644 82 0 402 209 402 644 1 32-18 61-48 73z m-353-638v697l322-134c0-339-210-517-322-563z" horiz-adv-x="1000" />

<glyph glyph-name="fraud-protection" unicode="&#xe824;" d="M855 724c-12 8-27 8-39 1l-719-409c-13-7-20-20-19-34 1-14 10-27 23-32l237-100v-176c0-14 8-26 20-33 5-2 10-4 16-4 7 0 14 2 20 6l172 110 153-64c5-2 9-3 14-3 7 0 13 2 19 5 10 6 17 16 18 27l99 669c4 14-2 29-14 37z m-205-179l-290-323-161 67 451 256z m-239-503v76l72-30-72-46z m294 34l-274 115 348 387-74-502z" horiz-adv-x="1000" />

<glyph glyph-name="protection" unicode="&#xe825;" d="M398 632c0-56-37-105-90-122v-158c34 24 74 37 115 37h154c63 0 115 51 115 115 0 0 0 0 0 0v6c-54 17-90 66-90 122 0 71 57 128 128 128 0 0 0 0 0 0 71 0 128-57 128-128 0 0 0 0 0 0 0-56-36-105-90-122v-6c0-106-86-192-191-192 0 0 0 0 0 0h-154c-64 0-115-51-115-115 0 0 0 0 0 0v-6c53-17 90-66 90-122 0-71-58-128-128-128 0 0 0 0 0 0-71 0-128 57-128 128 0 0 0 0 0 0 0 56 36 105 89 122v319c-53 17-89 66-89 122 0 71 57 128 128 128 0 0 0 0 0 0 70 0 128-57 128-128 0 0 0 0 0 0z m-128-51c28 0 51 23 51 51 0 29-23 52-51 52-29 0-52-23-52-52 0-28 23-51 52-51z m460 102c-28 0-51-23-51-51 0 0 0 0 0 0 0-28 23-51 51-51 0 0 0 0 0 0 28 0 51 23 51 51 0 0 0 0 0 0 0 28-22 51-51 51 0 0 0 0 0 0z m-460-665c28 0 51 23 51 51 0 0 0 0 0 0 0 28-23 51-51 51 0 0 0 0 0 0-28 0-51-23-51-51 0 0 0 0 0 0-1-28 22-51 51-51 0 0 0 0 0 0z" horiz-adv-x="1000" />

<glyph glyph-name="api" unicode="&#xe826;" d="M224 468c0 31 25 56 56 57 31 0 56-24 56-55 0-1 0-1 0-2 1-30-24-56-54-56-1 0-1 0-2 0-31 0-56 25-56 56z m124 215l9-39c14-6 26-13 38-22l38 12c8 2 17 0 22-6 23-25 41-56 51-88 2-8 0-17-6-22l-30-27c2-8 2-16 2-24 0-6 1-15 0-22l28-26c6-6 8-14 6-22-11-33-28-63-51-89-6-6-14-8-22-6l-36 11c-12-9-26-17-40-23l-9-37c-2-8-8-14-16-16-17-4-35-6-52-6-17 0-34 2-51 6-7 2-13 8-14 16l-9 37c-14 6-28 14-40 23l-36-11c-8-2-17 0-22 6-24 25-41 56-51 89-3 7 0 16 6 22l28 26c-1 7-1 15-2 22 0 8 1 16 2 24l-29 27c-5 5-8 14-5 22 10 33 27 63 51 88 5 6 14 9 22 6l38-11c11 8 24 16 37 21l10 39c1 8 7 14 14 16 17 4 34 6 51 6 17 0 35-2 52-6 8-2 14-8 16-16z m-203-216c0-5 1-10 2-15l3-28-32-30c5-11 11-21 17-31l42 13 23-18c8-6 18-12 28-16l26-12 10-41c6-1 11-1 16-1 6 0 12 0 18 1l10 41 26 12c10 4 20 10 29 16l23 18 41-13c7 10 13 20 17 31l-31 30 3 28c0 5 0 10-1 15 1 6 1 11 1 17l-4 28 32 31c-4 10-10 20-17 30l-43-13-23 17c-8 6-18 12-27 16l-25 11-10 44c-6 1-12 1-19 1-4 0-10-1-16-1l-10-44-26-11c-9-4-18-10-26-16l-23-17-43 13c-7-10-13-20-17-30l32-31-3-28c-2-6-3-11-3-17z m565-191c31 0 56-25 56-56 0 0 0 0 0 0 0-31-25-56-56-56 0 0 0 0 0 0-31 0-56 25-56 56 0 0 0 0 0 0-1 31 25 56 56 56 0 0 0 0 0 0l0 0z m165 96l-11-38c9-12 16-25 22-38l39-9c8-2 14-8 16-15 4-17 6-35 6-52 0-17-2-34-6-51-2-7-8-13-16-16l-39-9c-6-13-13-26-22-38l11-38c3-8 1-16-5-22-26-23-56-40-89-51-8-2-16 0-22 6l-28 30c-8-2-15-3-23-3-7 0-14 0-21 1l-27-28c-6-6-14-8-22-6-33 10-63 28-89 51-6 6-8 14-5 22l11 36c-10 12-18 26-24 40l-37 9c-7 2-14 8-16 16-4 17-6 34-7 51 1 17 3 35 7 52 2 7 9 13 16 14l37 9c6 14 14 28 24 40l-11 36c-3 8-1 17 5 22 26 23 56 41 89 51 8 2 16 0 22-6l27-28c7 1 14 1 21 1 8 0 15 0 23-1l28 28c6 6 14 8 22 6 33-10 63-28 89-51 6-5 8-13 5-21z m-166-17c-5 0-11 0-16-1l-27-3-31 32c-10-5-20-11-30-17l12-41-18-24c-6-9-11-18-16-28l-11-26-42-10c0-6-1-11-1-17s1-12 1-18l42-10 11-26c5-9 10-19 16-28l18-23-12-41c10-7 20-13 30-18l31 32 27-3c5 0 11-1 16-1 5 0 11 1 17 1l28 4 30-33c11 5 21 11 31 18l-13 43 17 22c6 9 11 18 15 28l11 25 44 10c1 6 1 11 1 17s0 12-1 18l-44 10-11 26c-4 9-9 18-15 26l-17 23 12 43c-9 7-19 13-30 17l-31-32-28 4c-5 1-11 1-16 1z" horiz-adv-x="1000" />

<glyph glyph-name="iris-detect" unicode="&#xe827;" d="M581 213c10 0 20 4 27 11 14 15 14 38 0 53l-382 381h170c20 0 37 17 37 37 0 20-17 37-37 37 0 0 0 0 0 0h-259c-21 0-37-17-37-37v-259c0-21 16-37 37-37 20 0 37 16 37 37 0 0 0 0 0 0v170l381-382c7-7 16-11 26-11z m-37 420c-20 0-37-16-37-37 0-20 17-37 37-37 150 0 272-121 272-271 0-150-122-272-272-272-150 0-271 122-271 272 0 20-17 37-37 37-21 0-37-17-37-37 0-191 154-346 345-346 191 0 346 155 346 345 0 191-155 346-346 346z" horiz-adv-x="1000" />

<glyph glyph-name="iris-enrich" unicode="&#xe828;" d="M97 611c0 56 45 101 101 101 0 0 0 0 0 0h607c56 0 102-45 102-101v-507c0-56-46-101-102-101h-607c-56 0-101 45-101 101v507z m354-532h354c14 0 26 11 26 25v507c0 14-12 25-26 25h-354v-557z m-215 456h76c21 0 38 17 38 37 0 0 0 0 0 1 0 21-17 38-38 38 0 0 0 0 0 0h-76c-21 0-38-17-38-38 0 0 0 0 0 0 0-21 17-38 38-38 0 0 0 0 0 0z m0-76c-21 0-38-17-38-38 0 0 0 0 0 0 0-21 17-38 38-38 0 0 0 0 0 0h76c21 0 38 17 38 37 0 0 0 0 0 1 0 21-17 38-38 38 0 0 0 0 0 0h-76z m0-228h76c21 0 38 17 38 38 0 0 0 0 0 0 0 21-17 38-38 38 0 0 0 0 0 0h-76c-21 0-38-17-38-38 0 0 0 0 0 0 0-21 17-38 38-38 0 0 0 0 0 0z" horiz-adv-x="1000" />

<glyph glyph-name="threat-intelligence" unicode="&#xe829;" d="M703 390c21 0 38-17 38-38 0 0 0 0 0 0 0-21-17-38-38-38 0 0 0 0 0 0h-405c-21 0-38 17-38 38 0 0 0 0 0 0 0 21 17 38 38 38 0 0 0 0 0 0h405z m0-153c21 0 38-17 38-38 0 0 0 0 0 0 0-21-17-38-38-38 0 0 0 0 0 0h-405c-21 0-38 17-38 38 0 0 0 0 0 0 0 21 17 38 38 38 0 0 0 0 0 0l405 0z m-608 368c0 56 45 102 101 102 0 0 0 0 0 0h609c56 0 101-46 101-102v-507c0-56-45-101-101-101h-609c-56 0-101 45-101 101v507z m76-152v-355c0-14 11-25 25-25h609c14 0 25 11 25 25v355h-659z m616 152h-116c-7 0-13-5-13-12 0-4 1-7 4-9l58-58c5-5 13-5 18-1 0 0 0 0 0 1l58 57c5 5 5 13 0 18-2 3-6 4-9 4z" horiz-adv-x="1000" />

<glyph glyph-name="firewall" unicode="&#xe82a;" d="M391 133v66h47c-2 15-3 30-3 46 0 6 0 12 1 19h-154v76h176c7 18 17 35 27 51 3 4 6 9 10 14h-104v76h163c16 18 33 34 50 49 23 22 60 23 84 1 3-3 5-5 8-7v66c0 48-39 87-87 87h-435c0 0 0 0 0 0-48 0-87-39-87-87v-435c0-48 39-87 87-87h328c-17 20-32 41-42 65h-69z m174 479h44c12 0 21-10 21-22v-43h-65v65z m-282 0h217v-65h-217v65z m-131-22c0 0 0 0 0 0 0 12 10 22 22 22h43v-65l-65 0v43z m0-109h174v-76h-174v76z m0-141h66v-76h-66v76z m174-207h-152c-12 0-22 10-22 22v43h174v-65z m554 216c-21 42-48 79-82 111-7 6-19 7-27 1-13-13-25-27-36-41-23 28-48 54-75 78-8 7-19 7-27 0-43-38-80-82-111-130-26-44-44-88-44-123 0-121 97-219 218-220 120 1 217 99 217 220 0 27-13 66-33 104z m-116-216c-20-14-43-22-68-21-60 0-109 39-109 106 0 32 21 62 60 111 6-7 86-107 86-107l49 58c3-5 7-11 9-16l0 0c24-46 14-103-27-131z" horiz-adv-x="1000" />

<glyph glyph-name="economics" unicode="&#xe82b;" d="M903 701c10-10 9-27-1-36 0 0 0 0 0 0l-283-257c-10-9-25-9-35 1l-190 191-265-194c-11-8-27-6-35 5 0 0 0 0 0 0-9 12-6 28 5 36 0 0 0 0 0 0l282 206c11 8 25 7 34-2l188-188 264 240c10 9 27 9 36-2 0 0 0 0 0 0z m-635-531v-102c-1-43-35-77-78-76-42 0-76 34-76 76v102c0 43 34 78 77 79 43-1 77-36 77-79z m-51-102v102c0 14-12 26-26 26-14 0-26-11-26-26v-102c1-15 12-26 27-25 13 0 24 11 25 25z m102 258c1 42 35 76 77 77 43-1 77-35 77-77v-259c0-42-35-76-78-76-41 1-75 35-76 76l0 259z m78 25c-14 0-25-11-26-25v-259c0-14 12-25 26-25 14 1 25 12 25 25v259c0 14-12 25-25 25l0 0z m282-129v-154c1-43-34-78-76-78-43-1-77 33-78 76 0 0 0 1 0 2v154c0 42 34 77 77 78 43-1 77-36 77-78l0 0z m-51-154v154c0 14-12 26-26 27-14-1-26-13-26-27v-154c0-15 11-26 25-27 15 0 26 11 27 25 0 1 0 1 0 2l0 0z m102 258c1 42 35 76 77 77 43-1 77-35 77-77v-259c0-42-35-76-78-76-41 1-75 35-76 76l0 259z m77 25c-14 0-25-11-25-25v-259c0-14 12-25 26-25 14 1 25 12 25 25v259c-1 14-12 25-26 25l0 0z" horiz-adv-x="1000" />

<glyph glyph-name="data" unicode="&#xe82c;" d="M351 244c-22 0-39-18-39-40v-105c0-22 17-40 39-40 22 0 40 18 40 40 0 0 0 0 0 0v105c0 22-18 40-40 40z m145 106c-22 0-39-18-39-40v-211c0-22 17-40 39-40 22 0 40 18 40 40v211c0 22-18 40-40 40z m146-53c-22 0-40-18-40-40v-158c0-22 18-40 40-40 22 0 39 18 39 40v158c0 22-17 40-39 40z m140 321l-123 123c-20 20-47 31-75 31h-299c-58 0-105-47-105-105v-634c0-58 47-106 105-106h423c58 1 105 48 105 106v510c0 28-11 55-31 75z m-74-612h-423c-14 0-26 12-26 27v633c0 15 12 27 26 27h264v-132c0-29 24-53 53-53h131v-475h1c0-15-12-27-26-27z" horiz-adv-x="1000" />

<glyph glyph-name="eyeglass" unicode="&#xe82d;" d="M886 7l-187 187c42 50 64 114 63 179 0 160-130 290-290 290 0 0 0 0 0 0-160 0-289-129-289-289 0 0 0 0 0-1 0-159 129-289 289-290 65 0 129 22 180 63l186-187c7-6 16-9 25-9 9 0 18 3 24 9 13 13 13 34 0 46 0 1-1 2-1 2z m-636 366c0 123 100 223 223 223 123 0 223-100 223-223 0-123-100-223-223-223-123 1-223 100-223 223z" horiz-adv-x="1000" />

<glyph glyph-name="partners3" unicode="&#xe82e;" d="M198 353l215-206c13-12 14-33 1-46-12-13-33-14-46-1l-240 229c-6 6-10 15-10 24 0 9 4 17 10 23l240 229c13 13 34 12 46-1 13-13 12-33-1-46l-215-205z m410 205c-13 13-14 33-1 46 13 13 33 14 46 1l240-229c7-6 10-14 10-23 0-9-3-18-10-24l-240-229c-13-12-34-12-46 1-12 13-12 34 1 46l215 206-215 205z" horiz-adv-x="1000" />

<glyph glyph-name="partners2" unicode="&#xe82f;" d="M842 630l-312 130c-9 4-20 6-30 6-10 0-20-2-30-6l-312-130c-29-12-48-40-48-71 0-419 308-625 390-625 80 0 390 203 390 625 0 31-19 59-48 71z m-342-618c-158 66-312 271-312 546l312 130 312-130c0-282-160-482-312-546z m-91 353c-6 8-16 12-26 12-21 0-39-17-39-39 0-10 4-20 12-27l78-78c7-8 17-12 27-12 12 0 22 5 30 14l156 182c6 7 9 16 9 25 0 22-17 39-39 39-11 0-22-5-29-13l-129-152-50 49z" horiz-adv-x="1000" />

<glyph glyph-name="partners" unicode="&#xe830;" d="M861 707c-14 6-31 3-42-8l-81-82c-66 60-151 92-240 93-160-1-300-106-346-260-6-20 6-41 26-47 0 0 0 0 0 0 21-6 42 5 48 26 0 0 0 0 0 0 36 121 146 203 272 204 68 0 133-25 185-70l-96-96c-11-11-15-28-9-42 6-14 20-24 36-24h232c21 0 38 18 38 39v231c1 16-9 30-23 36z m-43-409c-20 6-41-6-47-26 0 0 0 0 0 0-36-122-147-206-274-206-68 1-133 26-184 70l96 96c11 11 14 28 8 42-5 15-20 25-36 24h-230c-21 0-39-17-39-38v-232c0-21 18-39 39-39 10 0 20 4 27 12l82 81c65-59 149-92 237-93 160 1 301 106 347 260 7 20-4 42-24 49-1 0-1 0-2 0z" horiz-adv-x="1000" />

<glyph glyph-name="solution" unicode="&#xe831;" d="M782 490c52 0 95-42 95-94v-330c0-52-43-95-95-95h-565c-52 0-94 43-94 95v330c0 52 42 94 94 94h565z m0-71h-565c-13 0-23-10-24-23v-330c0-13 11-24 24-24h565c13 0 24 11 24 24v330c0 13-11 23-24 23l0 0z m-11 189c19 0 35-16 35-35 0 0 0 0 0 0 0-20-16-36-35-36 0 0 0 0 0 0h-542c-20 0-36 16-36 36 0 0 0 0 0 0 0 19 16 35 36 35l542 0z m-71 118c19 0 35-16 35-36 0 0 0 0 0 0 0-19-15-35-35-35 0 0 0 0 0 0h-401c-19 0-35 16-35 35 0 0 0 0 0 0 0 20 16 36 35 36 0 0 0 0 0 0h401z" horiz-adv-x="1000" />

<glyph glyph-name="collaboration" unicode="&#xe832;" d="M775 392c-43 0-78-35-78-78 0-44 35-79 78-79 43 0 78 35 78 79 0 43-35 78-78 78z m19-78c1-10-7-19-17-19-1 0-1 0-2 0-10-1-18 7-19 17 0 0 0 1 0 2 0 10 8 19 19 19 10 1 19-8 19-18 0-1 0-1 0-1z m10-118h-58c-50-1-90-42-89-92 0-14 11-26 26-26h184c15 0 26 12 26 26 1 50-39 91-89 92z m-629 236c1 0 1 0 0 0 17 0 30 13 30 29 0 0 0 0 0 0v177c0 5 4 10 10 10h570c5 0 9-5 9-10v-177c0-16 13-29 30-29 0 0 0 0 0 0 16 0 29 13 29 29 0 0 0 0 0 0v177c0 38-30 69-68 69h-570c-38 0-69-31-69-69v-177c0-16 13-29 29-29z m79-236h-58c-50-1-90-42-89-92 0-14 11-26 26-26h184c15 0 26 12 26 26 0 50-39 91-89 92z m275 0h-58c-50-1-90-42-89-92 0-14 11-26 26-26h184c15 0 26 12 26 26 0 50-39 91-89 92z m-383 118c0-44 36-79 79-78s78 35 78 78c0 44-35 78-78 78-44 0-79-35-79-78z m98 0c0-11-9-20-20-19-10 0-19 9-19 19 0 11 9 19 20 19 10 0 19-9 19-19z m177 0c0-44 36-79 79-78s78 35 78 78c0 44-35 78-78 78-44 0-79-35-79-78z m98 0c0-11-9-19-20-19-10 0-19 9-19 19 1 11 9 19 20 19 11 0 19-9 19-19z" horiz-adv-x="1000" />

<glyph glyph-name="enablement" unicode="&#xe833;" d="M465 720c11 5 24 7 36 7 12 0 25-3 36-7l307-132c20-8 32-28 32-49 0-21-12-40-32-48l-307-132c-11-5-24-7-36-7-13 0-25 2-36 7l-307 132c-20 8-32 27-32 48 0 22 12 41 32 49l307 132z m36-63c-3 0-6-1-9-2l-270-116 270-115c3-2 6-2 9-2 3 0 6 1 8 2l270 115-270 116c-2 1-5 2-8 2l0 0z m-9-421c3-2 6-2 9-2 3 0 6 1 9 2l279 119c-11 17-7 38 10 49 10 7 24 8 35 3l13-7c27-13 38-45 24-72-5-11-15-20-27-25l-307-132c-11-5-24-7-36-7-13 0-25 3-36 7l-306 131c-28 12-41 45-29 73 4 9 10 17 19 23l15 11c15 11 37 8 49-8 0 0 0 0 0 0 9-14 8-32-4-44l283-121z m-279-23c9-14 8-32-4-44l283-121c3-1 6-2 9-2 3 0 6 1 9 2l279 120c-11 16-7 38 10 49 10 7 24 7 35 2l13-7c27-13 38-45 24-72-5-11-15-20-26-25l-308-132c-11-5-24-7-36-7-13 0-25 3-36 7l-306 131c-28 12-41 45-29 73 4 9 10 17 19 23l15 11c15 11 37 8 49-8 0 0 0 0 0 0z" horiz-adv-x="1000" />

<glyph glyph-name="referrals" unicode="&#xe834;" d="M855 92c-27 35-78 42-114 15l-84 51c18 48 16 101-7 147l98 72c12-8 27-12 42-12 44 0 80 36 81 80 0 45-36 81-81 81-44 0-81-36-81-81 0-6 1-13 3-19l-98-72c-34 33-79 51-126 51-17 0-33-2-49-6l-34 72c14 15 22 34 22 55 0 44-36 81-81 81-44 0-80-36-80-81 0-44 36-81 80-81 2 0 3 2 5 0l34-72c-41-28-68-71-77-119h-88c-8 20-24 36-44 44-41 17-88-3-105-44s3-88 44-105c42-17 89 3 105 44h88c7-41 29-79 61-107 76-65 191-56 256 20l85-51c-3-22 2-44 15-62 27-36 78-43 114-16 36 28 43 79 16 115z m-367 11l0 0c0 0-1 0-1 0-67 1-120 55-120 121 0 1 0 2 0 3 1 66 55 118 121 118 67 0 121-54 121-121 0-67-54-121-121-121z" horiz-adv-x="1000" />

<glyph glyph-name="reseller" unicode="&#xe835;" d="M886 658v-214c0-22-18-40-40-40 0 0 0 0 0 0h-214c-22 0-40 18-40 40 0 11 4 21 12 29l87 87c-55 54-129 84-206 85-161 0-293-130-294-291 0-1 0-2 0-3 0-162 131-294 293-294 0 0 0 0 1 0 135 0 178 77 212 77 22 0 40-18 40-40 0-42-125-117-254-117-206 0-373 167-373 373s168 373 374 373c98 0 192-39 262-108l69 68c7 8 17 12 28 12 20 3 39-10 43-30 0-2 0-5 0-7z" horiz-adv-x="1000" />

<glyph glyph-name="dash" unicode="&#xe836;" d="M863 351c0-25-20-45-45-45h-635c-25 0-45 20-45 45s20 46 45 46h635c25 0 45-21 45-46 0 0 0 0 0 0z" horiz-adv-x="1000" />

<glyph glyph-name="checkmark" unicode="&#xe837;" d="M893 625c23-23 23-60 0-83 0 0 0 0 0 0l-470-470c-23-23-60-23-82 0 0 0 0 0 0 0l-235 235c-23 23-23 60 0 83s60 23 83 0l191-193 430 428c23 23 60 23 83 0 0 0 0 0 0 0z" horiz-adv-x="1000" />

<glyph glyph-name="domaon-risk" unicode="&#xe838;" d="M861 399c-1 0-1 1-2 2l-309 310c-28 26-72 26-101 0l-307-310c-27-27-28-70-2-98 1 0 2-1 2-2l309-308c26-27 70-28 97-2 1 1 2 1 2 2l309 308c27 27 28 70 2 98z m-360-355l-308 307 306 308h0c1 0 1 0 2 0 0 0 0 0 0 0l307-308-307-307z m47 166c0-26-21-47-47-47s-48 21-48 47c0 27 22 48 48 48 26 0 47-21 47-48z m-47 332c19 0 35-16 35-35v-166c0-20-16-36-35-36-20 0-36 16-36 36v166c0 19 16 35 36 35z" horiz-adv-x="1000" />

<glyph glyph-name="phsishing" unicode="&#xe839;" d="M713 269c-1-19-16-34-36-34 0 0 0 0-1 0-19 0-34 15-34 34 0 20 16 35 35 35v0c19 0 35-16 36-35z m70-238c14-14 14-36 0-50-14-14-36-14-50 0l-51 46c-1 1-3 3-5 5-1-2-3-4-6-5l-50-46c-1-1-1-1-1-1-15-13-37-11-50 4-13 14-11 37 4 49l22 21c-37 40-85 105-85 184 0 108 93 195 130 225v137c0 33-26 59-59 59-5 0-10 0-15-1l-93-24c-111-26-189-126-189-240v-89h12c1 0 1 0 1 0 26 0 47-21 47-46v-236c-1-26-22-46-47-46h-95c-1 0-1 0-1 0-26 0-47 21-47 46v236c1 26 22 46 47 46h12v89c1 147 101 274 243 309l94 24c10 2 21 4 32 4 45 0 130-35 130-131v-137c37-30 130-118 130-225 0-79-47-145-85-184l23-21c0-1 1-1 2-2z m-11 207c0 70-62 133-95 162-33-29-95-92-95-162 0-86 90-157 95-164v0c5 7 95 78 95 164z" horiz-adv-x="1000" />

<glyph glyph-name="at-scale" unicode="&#xe83a;" d="M867 259v-235c0-16-10-30-25-36-4-2-10-3-15-3h-235c-22 0-39 18-39 39 0 22 17 40 39 40h141l-232 232-232-233h140c22 0 40-17 40-39s-18-39-40-39h-235c-21 0-39 17-39 39v235c0 22 18 40 39 40s39-18 39-40v-140l232 232-232 232v-141c0-21-17-39-39-39s-39 18-39 39v236c0 5 1 10 3 15 4 9 11 17 21 21 4 2 10 3 15 3h235c21 0 39-17 39-39 0 0 0 0 0 0 0-22-17-39-39-39 0 0 0 0 0 0h-140l232-232 232 232h-141c-22 0-39 17-39 39 0 22 17 39 39 39h235c5 0 11-1 15-3 10-4 18-11 22-21 2-4 3-10 3-15v-235c0-22-18-39-40-39-21 0-39 17-39 39h0v140l-232-232 232-232v141c0 21 18 39 39 39 22 0 40-18 40-40z" horiz-adv-x="1000" />

<glyph glyph-name="wifi" unicode="&#xe83b;" d="M775 733h-547c-61 0-110-49-110-109v-548c0-60 49-110 110-110h547c61 0 110 49 110 110v548c0 60-49 109-110 109z m-399-586c-10-10-24-16-39-16-30 0-55 24-55 55 0 30 25 55 55 55s55-25 55-55c0-15-6-29-16-39z m170-16c0 0-1 0 0 0-2 1-2 0-5 0-22 0-40 16-41 38-5 94-86 175-179 181-23 1-40 21-39 43 0 0 0 0 0 0 2 23 21 40 44 39 133-9 249-124 257-258 2-22-15-41-37-43z m169 2c-2 0-4 0-6 0v0c-1-2-2-2-4-2-22 0-40 17-41 39-6 182-160 337-342 346-21 0-39 17-39 38 0 1 0 2 0 3 1 23 20 40 42 39 0 0 0 0 0 0 224-9 414-199 421-421 3-20-11-39-31-42z" horiz-adv-x="1000" />

<glyph glyph-name="right-arrow" unicode="&#xe83c;" d="M877 330l-284-300c-5-5-13-9-21-9-7 0-13 2-19 7-11 10-12 26-2 38 0 0 0 0 1 1l240 254h-644c-15 0-28 11-29 26 1 15 13 28 29 29h644l-240 255c-10 10-10 27 1 37 0 1 0 1 1 1 11 10 29 10 40-2l283-300c9-10 9-26 0-37z" horiz-adv-x="1000" />

<glyph glyph-name="arrow-right-thin" unicode="&#xe83d;" d="M537 694l333-333c6-6 6-16 0-22l-333-333c-6-6-16-6-22 0-6 6-6 16 0 22l306 306h-805c-9 0-16 7-16 16s7 16 16 16h805l-306 306c-6 6-6 16 0 22 6 6 16 6 22 0z" horiz-adv-x="875" />

<glyph glyph-name="arrow-left-thin" unicode="&#xe83e;" d="M338 6l-333 333c-7 6-7 16 0 22l333 333c6 6 16 6 22 0s6-16 0-22l-306-305h805c9 0 16-7 16-15s-7-16-16-16h-805l306-306c6-6 6-16 0-22-6-8-18-8-22-2z" horiz-adv-x="875" />

<glyph glyph-name="arrow-right-long-thin" unicode="&#xe83f;" d="M996 339c6 6 6 16 0 22l-297 297c-3 3-7 6-11 6s-8-1-11-4c-7-6-7-16 0-22l270-270h-931c-9 0-16-7-16-16 0-11 7-16 16-16h931l-270-270c-6-6-6-16 0-22s16-6 22 0l297 295z" horiz-adv-x="1000" />

<glyph glyph-name="arrow-left-long-thin" unicode="&#xe840;" d="M5 361c-7-6-7-16 0-22l297-297c3-3 6-3 11-3s8 2 11 5c6 6 6 16 0 22l-271 270h931c9 0 16 5 16 14s-7 16-16 16h-931l271 270c6 6 6 16 0 22s-16 6-23 0l-296-297z" horiz-adv-x="1000" />

<glyph glyph-name="path-129047" unicode="&#xe841;" d="M703 321c-2 80 41 153 111 190-43 60-113 98-189 100-79 6-166-47-198-47-56 18-113 33-171 45-124-3-257-100-257-298 0-62 12-122 32-181 29-82 133-283 240-280 56 1 95 40 169 40s108-40 171-40c108 1 201 184 229 266-84 35-138 115-138 205z m-127 367c40 44 60 103 54 162-59-6-112-34-151-78-41-43-62-101-58-161 62-1 120 28 155 77z" horiz-adv-x="841" />

<glyph glyph-name="path-129048" unicode="&#xe842;" d="M401 349c0 9-9 15-17 15-8 0-15-6-15-15l-19-233 19-245c0-8 7-15 15-16 8 0 15 6 17 16l20 245-20 233z m77 164c-11 0-18-8-19-19l-18-379 18-245c0-11 8-18 19-19 9 0 17 8 17 19l21 245-21 379c0 10-7 18-17 19h0z m92 86c-12 0-21-8-21-19h0l-16-468 16-244c0-10 9-19 21-19 10 0 19 8 19 18h0l20 244-19 467c0 11-8 20-18 20h0z m-545-346s-8-4-9-9l-17-128 17-126s4-9 9-9 8 4 10 9l20 126-20 128s-4 9-10 9z m86 78s-10-3-10-9h0l-23-207 23-202s4-9 8-10h0s10 4 11 9l26 203-26 207s-6 8-11 8z m90 41c-5 0-11-5-11-11l-21-245 21-237c0-6 6-11 11-12 7 0 12 5 12 12h0l25 237-25 245c0 7-5 11-12 11h0z m91 9c-7 0-12-6-12-13h0l-21-252 21-244c0-7 5-13 12-13h0c7 0 14 6 14 13l23 244-23 252c0 7-7 13-14 13h0z m869 398s-9 4-15 4c-7 0-14-2-21-7-6-5-10-15-11-24v-2l-12-635 6-118 6-114c0-17 15-31 32-31 17 0 31 14 31 31l14 232-15 638c0 11-7 21-16 27h0z m-95-56s-11 5-16 5c-6 0-12-2-17-5-8-5-12-13-12-24v-5l-12-579s0 0 12-236h0c0-7 2-13 6-19 5-7 13-11 23-11 8 0 14 3 20 9 6 5 9 13 9 20v24l13 210-11 586c0 9-6 19-14 24h0z m-401-80c-11 0-21-10-21-22l-16-506 16-242c0-12 10-21 21-21 12 0 22 9 22 21l18 242-18 505c0 11-10 22-22 22h0z m1355-226c-38 0-75-8-111-21-24 257-239 454-497 454-62 0-123-11-181-33-22-8-27-16-27-34v-897c0-18 14-33 31-34h785c155 0 282 126 283 281 0 157-126 283-282 284h0z m-1068 218c-15 0-28-13-28-28l-11-491 11-236c0-15 13-27 28-27 15 0 26 12 26 27h0l14 236-14 491c0 15-11 28-26 28z m-192 27c-13 0-23-11-23-24l-14-522 14-241c0-12 10-22 23-23 12 0 23 11 24 23l16 241-16 522c0 13-11 23-24 24z m95-12c-14 0-24-11-25-24h0l-14-510 14-240c0-13 11-24 25-25 14 0 25 12 25 25h0l15 240-15 510c0 13-10 24-24 24h0z" horiz-adv-x="2301" />

<glyph glyph-name="path-129049" unicode="&#xe843;" d="M500 850c-276 0-500-224-500-500 0-276 224-500 500-500 276 0 500 224 500 500 0 276-224 500-500 500z m203-735c-7 0-15 2-21 7-128 69-277 86-417 49-8-2-17-4-24-5-18 0-32 14-32 31 0 0 0 0 0 1-1 17 11 31 27 33 160 45 332 26 478-53 13-5 21-19 20-33 0-17-13-31-30-31 0 0 0 0-1 0h0z m54 132c-9 0-17 3-24 8-147 81-319 102-481 60-8-4-16-5-24-6-21 0-40 18-40 40-1 19 12 37 31 42 64 18 131 27 198 27 125 2 248-30 357-91 14-8 23-23 22-40 0-21-17-39-39-40h0z m63 153c-9 0-18 3-26 8-176 86-376 107-566 60-9-3-17-4-26-5-26 0-46 21-47 46 0 0 0 1 0 1-1 23 13 43 35 48 77 22 157 32 237 31 143 4 286-29 414-96 16-8 27-26 26-46 0-25-21-47-47-47h0z" horiz-adv-x="1000" />

<glyph glyph-name="path-129050" unicode="&#xe844;" d="M57 529c-29 2-55-21-57-50-2-30 20-55 50-58h0c276-25 496-245 521-521 2-27 25-49 52-50h3c30 2 53 27 50 57h0c-27 330-289 593-619 622z m14 321c-39 0-71-32-71-71s32-72 71-72c434 0 785-352 786-786 0-39 32-71 72-71s71 32 71 71c-1 513-416 929-929 929z m70-714c-78-2-141-65-141-143 0-79 63-142 141-143 78 1 142 64 143 143 0 78-63 142-141 143 0 0-2 0-2 0z" horiz-adv-x="1000" />
</font>
</defs>
</svg>
